#TITLE:Yi Zhi Du Xiu;
#SUBTITLE:;
#ARTIST:Show Luo;
#TITLETRANSLIT:Yi Zhi Du Xiu;
#SUBTITLETRANSLIT:;
#ARTISTTRANSLIT:La Chi Tuong;
#CREDIT:;
#BANNER:Yi Zhi Du Xiu-bn.png;
#BACKGROUND:Yi Zhi Du Xiu-bg.png;
#LYRICSPATH:;
#CDTITLE:pm4cd.png;
#MUSIC:Yi Zhi Du Xiu.mp3;
#OFFSET:0.020;
#SAMPLESTART:60.710;
#SAMPLELENGTH:20.000;
#SELECTABLE:YES;
#BPMS:0.000=120.250,137.750=60.130,141.750=120.250,266.000=60.130,281.750=120.250,345.500=60.130,347.875=240.511;
#STOPS:;
#BGCHANGES:;
// cache tags:
#FIRSTBEAT:9.500;
#LASTBEAT:348.125;
#SONGFILENAME:Songs/Music V.I.P ^_^/Yi Zhi Du Xiu/Yi Zhi Du Xiu.sm;
#HASMUSIC:1;
#HASBANNER:1;
#MUSICLENGTH:188.208;
// end cache tags

//---------------dance-single - ----------------
#NOTES:
     dance-single:
     :
     Hard:
     11:
     0.852,0.971,1.000,0.207,1.000,713.000,295.000,39.000,0.000,99.000:
0000
0000
0000
0000
,
0000
0000
0000
0000
,
0000
0000
0000
1001
0000
0000
0000
0000
,
0110
0000
0000
0110
0000
0000
1001
0000
0000
0000
0000
0000
0000
0000
0001
0010
,
0100
1000
0100
0010
0001
0010
1100
0000
0000
0000
0000
0000
0000
0000
0000
0000
,
1100
0000
0000
1100
0000
0000
0011
0000
0000
0000
0000
0000
0000
0000
0000
0000
,
0000
0000
0000
1010
0000
0000
0000
0000
,
0101
0000
0000
0101
0000
0000
1010
0000
0000
0000
0000
0000
0000
0000
1000
0100
,
0010
0001
0010
0100
1000
0100
0011
0000
0000
0000
0000
0000
0000
0000
0000
0000
,
0011
0000
0000
0011
0000
0000
2100
0000
0000
0000
0000
0000
0000
0000
3001
0001
,
0010
0010
0100
0100
1000
1000
0110
0000
1000
0000
0010
0000
0100
0000
0001
0000
,
1010
0000
0000
0110
0000
0000
0101
0000
0010
0000
1000
0000
0100
0000
0011
0100
,
1000
0010
0100
0001
0010
0100
1001
0000
0100
0000
0010
0000
0001
0000
0010
0000
,
1100
0000
0000
0101
0000
0000
1100
0000
0001
0000
0100
0000
0010
0000
0102
0000
,
0000
0000
0120
0000
0000
0003
1131
0000
0010
0000
0001
0000
0100
0000
0010
0000
,
1100
0000
0000
0101
0000
0000
0011
0000
0100
0000
1000
0000
0010
0000
0001
0000
,
1000
0100
1000
0000
0001
0010
1001
0000
0100
0000
0001
0000
1000
0000
0010
0000
,
1001
0000
0000
0110
0000
0000
1001
0000
0100
0000
0001
0000
0010
0000
1200
0000
,
0000
0000
1020
0000
0000
0300
1130
0000
0000
0101
1010
0000
0100
0000
0001
0000
,
1100
0011
1001
0100
0010
0101
1000
0100
,
0011
0000
0110
1100
0000
0000
0101
0000
0010
0000
0001
0000
1000
0000
0100
0000
,
0011
0100
1000
0010
0100
0012
0000
0000
,
0010
0100
1003
0100
0010
0201
0000
0000
,
0010
0001
1000
0311
1000
0010
0100
0001
,
1010
0100
0010
1001
0010
0100
0100
0100
,
0001
0010
0100
1100
0000
0011
0000
1100
,
0000
0000
0110
0000
0000
0000
0000
0111
0000
1000
0000
0010
0000
0100
0000
1000
,
0000
0011
0000
0000
1001
0000
0000
0110
0000
0001
0000
0100
0000
0010
0000
1001
,
0100
1000
0010
0100
0001
0010
0100
1011
0000
0100
0000
0001
0000
0010
0000
0100
,
0000
1001
0000
0000
0101
0000
0000
1100
0000
0001
0000
0010
0000
0100
0000
1010
,
0100
0100
0100
0011
1000
1000
1000
0111
0000
1000
0000
0010
0000
0100
0000
0001
,
0000
0110
0000
0000
1001
0000
0000
0101
0000
0010
0000
0100
0000
1000
0000
0101
,
1000
0100
0010
1001
0100
0010
0001
1110
0000
0001
0000
0100
0000
0010
0000
0001
,
0000
1100
0000
0000
0110
0000
0000
0011
0000
0100
0000
0001
0000
0010
0000
2001
,
0000
0000
0000
0000
0000
0000
0210
0000
0000
0000
0000
0000
0300
0000
3100
0000
0010
0001
0000
0000
0000
0000
0100
0000
1000
0100
0000
0000
0000
0000
0001
0000
,
0010
0100
0000
1000
0000
0000
0101
0010
0100
1001
0010
0100
1010
0100
1011
0000
0000
0000
0100
0000
0000
0000
0001
0000
0000
0000
0010
0000
0000
0000
1000
0000
,
0000
0101
0000
0000
1001
0000
0000
1100
0000
0001
0000
0010
0000
0100
0000
1200
,
0000
0000
0000
1002
0000
0000
0003
1311
0000
1000
0000
0100
0000
0010
0000
0001
,
0000
0110
0000
0000
1001
0000
0000
1010
0000
0001
0000
0010
0000
0100
0000
1100
,
0000
0010
0100
0010
0000
1000
0100
1001
0000
0010
0000
0100
0000
0001
0000
0010
,
0000
1100
0000
0000
0110
0000
0000
0011
0000
1000
0000
0010
0000
0100
0000
1020
,
0000
0000
0000
0201
0000
0000
0300
0131
0000
1000
0000
0001
0000
0010
0000
0100
,
0000
1001
0000
0010
1100
0011
0000
0100
0000
0010
0000
1010
0000
0100
0000
0010
,
0000
1100
0000
0001
1010
0101
0000
0110
0000
0001
0000
0010
0000
0100
0000
1000
,
0000
0101
0000
1010
0000
0001
0110
1001
0000
0010
0000
0100
0000
1010
0101
0000
,
0000
0010
0000
0001
0000
0010
0000
1100
0000
0010
0000
0001
0000
0100
0000
0010
,
0000
1001
0000
0110
0000
1001
0000
0010
0000
0100
0000
1010
0000
0100
0000
0001
,
0000
0010
0000
0100
0000
0010
0000
0101
0000
0010
0000
1000
0000
1000
0000
1000
,
0000
0100
0000
0010
1001
0110
0000
0111
0000
0000
0000
1110
0000
0000
0000
0111
,
0000
0000
0000
0011
0000
0000
0000
1110
0000
0001
0000
0100
0000
1000
0000
0100
,
0000
1011
0000
0000
1101
0000
0000
1011
0000
0100
0000
1000
0000
0010
0000
0101
,
0001
0110
0010
1100
0100
0011
0001
1110
0000
0001
0000
0100
0000
0010
0000
0001
,
0000
1101
0000
0000
0111
0000
0000
1110
0000
0001
0000
0100
0000
0010
0000
1001
,
1000
0101
0100
0011
0010
1100
0100
1011
0000
0100
0000
0001
0000
0010
0000
0100
,
0000
1011
0000
0000
1110
0000
0000
0111
0000
1000
0000
0001
0000
0010
0000
0101
,
0001
0110
0100
0011
0001
1010
1000
0111
0000
1000
0000
0001
0000
1000
0000
0010
,
0000
1011
0000
0000
0111
0000
0000
1101
0000
0010
0000
0002
0000
0100
0000
0010
,
0010
0100
0100
1000
1000
0100
0100
2023
0000
3030
0000
0202
0000
0303
0000
2020
,
0000
3030
0000
0202
0000
0303
0000
2022
0000
3033
0000
0100
0000
0010
0000
1001
,
0000
0110
1100
0000
0000
1000
0000
0000
0011
0000
1000
0000
0010
0000
0101
1010
,
0001
0000
0100
0100
0100
0000
0010
0010
0111
0000
1000
0000
0010
0000
0101
0000
,
0011
1100
0011
0000
0000
0110
0000
0000
1100
0000
0001
0000
0010
0000
0100
0000
,
1011
0000
0000
1110
0000
0000
0111
0000
1101
0000
0010
0000
1000
0000
0100
0000
,
0001
0000
1101
0000
0000
0111
0000
0000
1011
0000
0100
1000
0100
0010
0001
0010
,
0100
1000
0100
0000
0011
0000
0011
0011
1110
0000
0001
0000
0010
0000
0100
0000
,
1011
0000
0000
1101
0000
0000
1011
0000
1110
0000
0001
0000
0100
0000
0010
0000
,
0101
0000
0000
1010
0000
0000
0101
0000
2100
0010
0001
0010
0100
0010
0001
0010
,
3201
0010
0001
0010
1000
0010
0001
0010
1302
0010
0100
1000
0100
0010
0100
1000
,
0123
0001
0100
1000
0100
0001
0100
1000
0231
0010
1000
0010
0001
0010
1000
0010
,
2301
0010
0100
0010
0001
0010
0100
0010
3102
1000
0100
0100
0100
1000
0100
0010
,
1103
0000
0000
0000
0110
0000
0000
0000
0011
0000
0011
0000
0110
1100
0000
0000
0000
0000
0111
0000
0000
0000
1000
0000
0000
0000
0010
0000
0000
0000
0100
0000
,
0010
0000
0000
1101
0000
0000
1011
0000
0000
1101
0000
0010
0000
1000
0000
0100
,
0000
0011
1100
0011
1100
0011
1100
0011
1100
1011
0000
0100
0000
0001
0000
0010
,
0000
0100
0000
1011
0000
0000
1110
0000
0000
0111
0000
1100
1100
0000
0110
0000
,
0011
2011
0110
0011
0110
0102
0110
0110
0113
3111
0000
1000
0000
0001
0000
0010
,
0000
0100
0000
1011
0000
0000
1110
0000
0000
1101
0000
0010
0000
0100
0000
1000
,
0000
1010
0101
1010
0101
1010
0101
1010
0101
1110
0000
0001
0000
1000
0000
0100
,
0000
0010
0000
0111
0000
0000
1110
0000
0000
1011
0000
0100
0000
1002
0000
0000
,
0000
0120
0000
0000
0000
1203
0000
0000
0030
1311
0000
0100
0000
0001
0000
0100
,
0000
1000
0000
1110
0000
0000
0111
0000
0000
1101
0000
0010
0000
1000
0000
0100
,
0000
1001
0110
1001
0110
1001
0110
1001
0110
1011
0000
0100
0000
0001
0000
0010
,
0000
1000
0000
1101
0000
0000
0111
0000
0000
1110
0000
0001
0000
0100
0000
1100
,
0110
0011
0110
1100
0110
0011
0110
1100
0110
1101
0000
0010
0000
1000
0000
0001
,
0000
0010
0000
0111
0000
0000
1101
0000
0000
1011
0000
0100
0000
0010
0000
1000
,
0000
1001
1100
1001
1100
1001
1100
1001
1100
1011
0000
0100
0000
0001
0000
0010
,
0000
1000
0000
0111
0000
0000
1110
0000
0000
1101
0000
0010
0000
0010
0000
0100
,
0100
0000
0000
0000
0000
0000
1000
0000
0000
0000
0010
0000
0020
0000
0000
0000
0000
1000
0000
0100
0000
0001
0000
0100
1000
0000
0100
0200
0000
0000
0000
0000
,
0330
1111
0000
0000
0000
0000
0000
0000
0000
0000
0000
0000
0000
0000
0000
0000
0000
0000
0000
0000
0000
0000
0000
0000
0000
0000
0000
0000
0000
0000
0000
0000
;

//---------------dance-single - ----------------
#NOTES:
     dance-single:
     :
     Medium:
     1:
     0.000,0.000,0.000,0.000,0.000,0.000,0.000,0.000,0.000,0.000:
0000
0000
0000
0000
;
